Risultati da 1 a 2 di 2

Discussione: Da DVD con file mp4 a penna USB in formato AVI O MPEG.Quale procedura?




  1. #1
    Digital-Forum Senior Master L'avatar di ettore88
    Data Registrazione
    Oct 2009
    Località
    Genova
    Messaggi
    1,640

    Predefinito Da DVD con file mp4 a penna USB in formato AVI O MPEG.Quale procedura?

    Buonasera a tutti Voi.Vi pongo un quesito.Un amico mi ha dato un DVD di una partita di C.Italia in formato MP4(penso che originariamente la partita sia stata registrata dal TV o da un DVD recorder/decoder,poiché non è altro che la registrazione dell'evento che ha trasmesso la RAI...)Avrei bisogno di renderlo visibile su un lettore DVD da tavolo.Ho abbandonato l 'idea di renderlo su un DVD(ce ne vorrebbero due o un DL...)Ho optato per la penna USB.Il problema è che come tutti i lettori da tavolo(datati)ho due opzioni.Convertire la partita in AVI o MPEG 1/2.(perdo qualità lo so...)Ho provato.con la conversione in AVI ma stranamente non riesco a vederlo sul lettore.Probabilmente ho sbagliato qualcosa.Gentilmente mi potreste consigliare a quale programma affidarmi per convertire correttamente l MP4 in AVI/MPEG?Ovviamente poi lo metterò sulla penna USB.

    Ecco le caratteristiche del file mp4 che ho sul dvd:

    Format : MPEG-4
    Format profile : Base Media
    Codec ID : isom (isom/iso2/avc1/mp41)
    File size : 2.86 GiB
    Duration : 3 h 30 min
    Overall bit rate : 1 948 kb/s
    Writing application : Lavf57.72.101

    Video
    ID : 1
    Format : AVC
    Format/Info : Advanced Video Codec
    Format profile : Main@L3
    Format settings : CABAC / 1 Ref Frames
    Format settings, CABAC : Yes
    Format settings, RefFrames : 1 frame
    Codec ID : avc1
    Codec ID/Info : Advanced Video Coding
    Duration : 3 h 30 min
    Bit rate : 1 804 kb/s
    Width : 720 pixels
    Height : 576 pixels
    Display aspect ratio : 16:9
    Original display aspect ratio : 16:9
    Frame rate mode : Constant
    Frame rate : 25.000 FPS
    Standard : PAL
    Color space : YUV
    Chroma subsampling : 4:2:0
    Bit depth : 8 bits
    Scan type : Progressive
    Bits/(Pixel*Frame) : 0.174
    Stream size : 2.65 GiB (93%)
    Codec configuration box : avcC

    Audio
    ID : 2
    Format : AAC LC
    Format/Info : Advanced Audio Codec Low Complexity
    Codec ID : mp4a-40-2
    Duration : 3 h 30 min
    Bit rate mode : Constant
    Bit rate : 140 kb/s
    Channel(s) : 2 channels
    Channel layout : L R
    Sampling rate : 48.0 kHz
    Frame rate : 46.875 FPS (1024 SPF)
    Compression mode : Lossy
    Stream size : 210 MiB (7%)
    Language : Italian
    Default : Yes
    Alternate group : 1


    Le informazioni le ho reperite tramide MEDIA INFO.Che procedura posso adottare per vedere il video su penna usb su un normale lettore DVD?Grazie anticipatamente.
    ettore88Gibertini 105cm 45E-42E-39E-36E,Gibertini 105cm 33E/31,5E-28,2E-26E/25.5E-23.5E,Gibertini 105cm 19,2E-16E-13E-10E/9E-7E-5E,Gibertini 105cm 15W-12,5W/11W-8W/7W-5W/4W-1W.Decoders:CT HD 5100C/CT HD 4100+/CT2100+



  2. #2
    L'avatar di S7efano
    Data Registrazione
    Feb 2003
    Messaggi
    13,809

    Predefinito

    Per la conversione in AVI, non te lo legge perché? Dipende da che codec hai usato... AVI è solo un contenitore, come lo sono MP4, WMV(in tal caso è pure un codec), MPEG-PS (.mpg), MPEG-TS (.ts), MKV...
    I lettori da tavolo datati a cui ti riferisci sono quelli che supportano DivX (dal 3 al 6) e XviD, che sono lo stesso standard di compressione: MPEG-4 SP / ASP.
    Andando più indietro nel tempo (2000-2004), i formati leggibili dai lettori, non sono nemmeno gli avi, ma solo i DVD, VCD, SVCD ecc... con specifiche molto più rigide.

    Per cui l'AVI per essere leggibile deve avere una compressione in MPEG-4 ASP ottenibile con XviD o DivX (o altri poco diffusi ma purché aderenti allo standard MPEG-4 ASP). Per cui un AVI può contenere MPEG, anzi deve, per essere leggibile dai lettori dvd divx.
    Una volta che si è certi di questo, dovrebbe essere perlomeno visibile, ma magari potrebbero esserci altri problemi (asincronia, scattosità ecc) se non si conoscono i parametri corretti di miscelazione audio video accettati dai lettori, che in genere sono molto più schizzinosi dei player sul pc. Ma in ogni caso ci sono delle regole da seguire per garantire la piena compatibilità coi lettori dvd da tavolo...
    Ultima modifica di S7efano; 22-05-19 alle 03:25
    Ricezione satellitare -> parabola 1: Hotbird 13° Est + Astra 19,2° Est + Eutelsat 9°/7° Est; parabola 2: Astra 28,2° Est + Astra 23,5° Est.
    Ricevitori che uso attualmente: Digiquest F777, Humax Tivumax HD-6600s, mVision HD-300 Net, Nokia DVB 9500s (ormai solo per test).
    --
    d2mac from Olympus Satellite











Permessi di Scrittura

  • Tu non puoi inviare nuove discussioni
  • Tu non puoi inviare risposte
  • Tu non puoi inviare allegati
  • Tu non puoi modificare i tuoi messaggi
  •  
  • Il codice BB è Attivato
  • Le faccine sono Attivato
  • Il codice [IMG] è Attivato
  • Il codice [VIDEO] è Disattivato
  • Il codice HTML è Disattivato