• COMUNICATO IMPORTANTE: ACCOUNT BLOCCATI (16/02/2024) Clicca sul link per leggere il comunicato
  • Non sono ammesse registrazioni con indirizzi email temporanei usa e getta

Canali Mediaset su Eutelsat 9B

stp

Digital-Forum New User
Registrato
30 Marzo 2023
Messaggi
5
qualcuno che riceve eutelsat 9b può dirmi i parametri dei canali mediaset e se sono migliori rispetto al DTT?, non li trovo da nessuna parte
 
qualcuno che riceve eutelsat 9b può dirmi i parametri dei canali mediaset e se sono migliori rispetto al DTT?, non li trovo da nessuna parte
Essendo destinati ad alimentare i ripetitori del digitale terrestre, teoricamente non ci dovrebbero essere differenze qualitative... ho registrato uno spezzone di Canale 5 sia dal terrestre che dal satellite 9°E i parametri relativi al bitrate etc etc sono uguali.

Registrazione dal satellite 9°E
General
ID : 930 (0x3A2)
Complete name : Canale 5
Format : MPEG-TS
File size : 57.3 MiB
Duration : 1 min 23 s
Overall bit rate mode : Variable
Overall bit rate : 5 706 kb/s
Frame rate : 25.000 FPS

Video
ID : 1057 (0x421)
Menu ID : 3105 (0xC21)
Format : AVC
Format/Info : Advanced Video Codec
Format profile : High@L4
Format settings : CABAC / 4 Ref Frames
Format settings, CABAC : Yes
Format settings, Reference : 4 frames
Codec ID : 27
Duration : 1 min 23 s
Width : 1 920 pixels
Height : 1 080 pixels
Display aspect ratio : 16:9
Active Format Description : Full frame 16:9 image
Frame rate : 25.000 FPS
Standard : Component
Color space : YUV
Chroma subsampling : 4:2:0
Bit depth : 8 bits
Scan type : Interlaced
Scan type, store method : Separated fields
Scan order : Top Field First
Time code of first frame : 13:32:22:0000000020
Color range : Limited
Color primaries : BT.709
Transfer characteristics : BT.709
Matrix coefficients : BT.709

Audio #1
ID : 1157 (0x485)
Menu ID : 3105 (0xC21)
Format : E-AC-3
Format/Info : Enhanced AC-3
Commercial name : Dolby Digital Plus
Codec ID : 6
Duration : 1 min 23 s
Bit rate mode : Constant
Bit rate : 128 kb/s
Channel(s) : 2 channels
Channel layout : L R
Sampling rate : 48.0 kHz
Frame rate : 31.250 FPS (1536 SPF)
Compression mode : Lossy
Delay relative to video : -532 ms
Stream size : 1.28 MiB (2%)
Language : Italian
Service kind : Complete Main

Audio #2
ID : 1257 (0x4E9)
Menu ID : 3105 (0xC21)
Format : AAC LC SBR
Format/Info : Advanced Audio Codec Low Complexity with Spectral Band Replication
Commercial name : HE-AAC
Format settings : NBC
Muxing mode : LATM
Codec ID : 17-2
Duration : 1 min 23 s
Bit rate mode : Variable
Channel(s) : 2 channels
Channel layout : L R
Sampling rate : 48.0 kHz
Frame rate : 23.438 FPS (2048 SPF)
Compression mode : Lossy
Delay relative to video : -381 ms
Language : English

Text
ID : 2057 (0x809)
Menu ID : 3105 (0xC21)
Format : DVB Subtitle
Codec ID : 6
Duration : 1 min 20 s
Delay relative to video : 80 ms
Language : Italian

Menu
ID : 305 (0x131)
Menu ID : 3105 (0xC21)
Format : AVC / E-AC-3 / AAC / DVB Subtitle / / / / /
Duration : 1 min 23 s
List : 1057 (0x421) (AVC) / 1157 (0x485) (E-AC-3, Italian) / 1257 (0x4E9) (AAC, English) / 2057 (0x809) (DVB Subtitle, Italian) / 6054 (0x17A6) () / 7811 (0x1E83) () / 7812 (0x1E84) () / 7891 (0x1ED3) () / 7892 (0x1ED4) ()
Language : / Italian / English / Italian
Service name : Canale5 HD
Service provider : Mediaset
Service type : advanced codec HD digital television

Registrazione dal Digitale terrestre


General
ID : 930 (0x3A2)
Complete name : Canale 5
Format : MPEG-TS
File size : 58.5 MiB
Duration : 1 min 24 s
Start time : 2023-10-23 13:32:24 UTC
End time : 2023-10-23 13:33:48 UTC
Overall bit rate mode : Variable
Overall bit rate : 5 779 kb/s
Frame rate : 25.000 FPS
Network name : Mediaset3
Original network name : Mediaset
Country : ITA
Timezone : +02:00:00

Video
ID : 1057 (0x421)
Menu ID : 3005 (0xBBD)
Format : AVC
Format/Info : Advanced Video Codec
Format profile : High@L4
Format settings : CABAC / 4 Ref Frames
Format settings, CABAC : Yes
Format settings, Reference : 4 frames
Codec ID : 27
Duration : 1 min 24 s
Width : 1 920 pixels
Height : 1 080 pixels
Display aspect ratio : 16:9
Active Format Description : Full frame 16:9 image
Frame rate : 25.000 FPS
Standard : Component
Color space : YUV
Chroma subsampling : 4:2:0
Bit depth : 8 bits
Scan type : Interlaced
Scan type, store method : Separated fields
Scan order : Top Field First
Time code of first frame : 13:32:20:0000000019
Color range : Limited
Color primaries : BT.709
Transfer characteristics : BT.709
Matrix coefficients : BT.709

Audio #1
ID : 1157 (0x485)
Menu ID : 3005 (0xBBD)
Format : E-AC-3
Format/Info : Enhanced AC-3
Commercial name : Dolby Digital Plus
Codec ID : 6
Duration : 1 min 24 s
Bit rate mode : Constant
Bit rate : 128 kb/s
Channel(s) : 2 channels
Channel layout : L R
Sampling rate : 48.0 kHz
Frame rate : 31.250 FPS (1536 SPF)
Compression mode : Lossy
Delay relative to video : -580 ms
Stream size : 1.29 MiB (2%)
Language : Italian
Service kind : Complete Main

Audio #2
ID : 1257 (0x4E9)
Menu ID : 3005 (0xBBD)
Format : AAC LC SBR
Format/Info : Advanced Audio Codec Low Complexity with Spectral Band Replication
Commercial name : HE-AAC
Format settings : NBC
Muxing mode : LATM
Codec ID : 17-2
Duration : 1 min 24 s
Bit rate mode : Variable
Channel(s) : 2 channels
Channel layout : L R
Sampling rate : 48.0 kHz
Frame rate : 23.438 FPS (2048 SPF)
Compression mode : Lossy
Delay relative to video : -493 ms
Language : English

Text
ID : 2057 (0x809)
Menu ID : 3005 (0xBBD)
Format : DVB Subtitle
Codec ID : 6
Duration : 1 min 20 s
Delay relative to video : 1 s 760 ms
Language : Italian

Menu
ID : 205 (0xCD)
Menu ID : 3005 (0xBBD)
Format : AVC / E-AC-3 / AAC / DVB Subtitle / / / / /
Duration : 1 min 24 s
List : 1057 (0x421) (AVC) / 1157 (0x485) (E-AC-3, Italian) / 1257 (0x4E9) (AAC, English) / 2057 (0x809) (DVB Subtitle, Italian) / 6054 (0x17A6) () / 7811 (0x1E83) () / 7812 (0x1E84) () / 7891 (0x1ED3) () / 7892 (0x1ED4) ()
Language : / Italian / English / Italian
Service name : Canale5 HD
Service provider : Mediaset
Service type : advanced codec HD digital television
2023-10-23 12:45:02 UTC : it:UOMINI E DONNE / it: / / / 01:24:04 / Running
2023-10-23 14:09:06 UTC : it:Amici di Maria / it:REALITY 26 - Italia, 2023 / / / 00:36:27 / Not running
 
Ultima modifica:
Indietro
Alto Basso